Сделано в америке скачать на телефон

Сделано в Америке (2017/BDRip/HDRip)

  • Год: 2017
  • Жанр: Фильмы, Биография, Боевик, Драма, Исторический, Комедия, Криминал, Триллер, Хиты кинопроката, Фильмы в 4K
  • Страна: США
  • Режиссер: Даг Лайман
  • В ролях: Том Круз, Донал Глисон, Калеб Лэндри Джонс, Сара Райт, Джесси Племонс, Джейма Мейс, Лола Кёрк, Кевин Л. Джонсон, Коннор Триннир, Бенито Мартинес
  • Озвучивание: Дублированный [лицензия]
  • Возраст: зрителям, достигшим 18 лет
  • Премьера (Мир): 17 августа 2017
  • Премьера (РФ): 12 октября 2017

Описание Сделано в Америке:

Он был самым юным пилотом Боинга 747 в США, а уже через несколько лет стал одним из богатейших людей в Америке. Его стиль жизни был столь же экстремальным, как и его бизнес. Закрытые приемы, роскошные блондинки, крутые тачки и рисковые сделки. Он обладал талантом делать деньги из воздуха.

Слоган: «Он обладал талантом делать деньги из воздуха»
Сценарий: Гэри Спинелли
Продюсер: Рон Ховард, Брайан Грейзер, Даг Дэвисон
Оператор: Сезар Шарлони
Композитор: Кристоф Бек
Художник: Элизабет Каммингс, Дэн Вейл, Патриция Аранго
Монтаж: Дилан Тиченор, Эндрю Мондшейн, Заар Клейн
Студия: Cross Creek Pictures, Imagine Entertainment, Quadrant Pictures, Vendian Entertainment
Бюджет: $80 000 000

Премьера (мир): 17 августа 2017
Премьера (РФ): 12 октября 2017, «UPI»

Рейтинг MPAA: лицам до 17 лет обязательно присутствие взрослого

Скачать Сделано в Америке быстро и бесплатно

62,7 Мbps avg, 0.315 bit/pixel
Аудио: DTS, 48 kHz, 6 ch,

768.00 kbps avg | русский | Blu-ray EUR
Аудио: АС3, 48 kHz, 2 ch,

192.00 kbps avg | украинский |
Аудио: DTS-X MA, 48,0 kHz, 8 ch,

6908.00 kbps avg | английский | Оригинал
Субтитры: Русские, английские
Видео: Идентификатор : 1 Формат : HEVC Формат/Информация : High Efficiency Video Coding Профиль формата : Main [email protected]@High Идентификатор кодека : V_MPEGH/ISO/HEVC Продолжительность : 1 ч. 54 м. Битрейт : 62,7 Мбит/сек Ширина : 3840 пикселей Высота : 2160 пикселей Соотношение сторон : 16:9 Режим частоты кадров : Постоянный Частота кадров : 23,976 (24000/1001) кадра/сек Цветовое пространство : YUV Субдискретизация насыщенности : 4:2:0 (Type 2) Битовая глубина : 10 бит Бит/(Пиксели*Кадры) : 0.315 Размер потока : 50,3 Гбайт (89%) Заголовок : MPEG-H HEVC Video / 62675 kbps / 2160p / 23.976 fps / 16:9 / Main 10 Profile 5.1 High / 4:2:0 / 10 bits / HDR / BT.2020 Библиотека кодирования : ATEME Titan File 3.8.3 (4.8.3.0) Default : Да Forced : Нет Цветовой диапазон : Limited Основные цвета : BT.2020 Характеристики трансфера : PQ Коэффициенты матрицы : BT.2020 non-constant MasteringDisplay_ColorPrimaries : Display P3 MasteringDisplay_Luminance : min: 0.0050 cd/m2, max: 1000 cd/m2 MaxCLL : 853 cd/m2 MaxFALL : 112 cd/m2
Аудио #1: Идентификатор : 2 Формат : DTS Формат/Информация : Digital Theater Systems Идентификатор кодека : A_DTS Продолжительность : 1 ч. 54 м. Вид битрейта : Постоянный Битрейт : 768 Кбит/сек Каналы : 6 каналов Расположение каналов : Front: L C R, Side: L R, LFE Частота : 48,0 КГц Частота кадров : 93,750 кадра/сек (512 SPF) Битовая глубина : 24 бит Метод сжатия : С потерями Размер потока : 631 Мбайт (1%) Заголовок : DUB | Blu-ray EUR Язык : Russian Default : Да Forced : Нет
Аудио #2: Идентификатор : 3 Формат : AC-3 Формат/Информация : Audio Coding 3 Идентификатор кодека : A_AC3 Продолжительность : 1 ч. 54 м. Вид битрейта : Постоянный Битрейт : 192 Кбит/сек Каналы : 2 канала Расположение каналов : Front: L R Частота : 48,0 КГц Частота кадров : 31,250 кадров/сек (1536 SPF) Битовая глубина : 16 бит Метод сжатия : С потерями Размер потока : 158 Мбайт (0%) Заголовок : DUB Язык : Ukrainian Default : Нет Forced : Нет
Аудио #3: Идентификатор : 4 Формат : DTS Формат/Информация : Digital Theater Systems Профиль формата : X / MA / Core Идентификатор кодека : A_DTS Продолжительность : 1 ч. 54 м. Вид битрейта : Переменный / Переменный / Постоянный Битрейт : 6908 Кбит/сек / 6908 Кбит/сек / 1509 Кбит/сек Каналы : Object Based / 8 каналов / 6 каналов Расположение каналов : Object Based / Front: L C R, Side: L R, Back: L R, LFE / Front: L C R, Side: L R, LFE Частота : / 48,0 КГц / 48,0 КГц Частота кадров : 93,750 кадра/сек (512 SPF) Битовая глубина : / 24 бит / 24 бит Метод сжатия : / Lossless / Lossy Размер потока : 5,51 Гбайт (10%) Заголовок : Original Язык : English Default : Нет Forced : Нет

Читать еще:  Игра сделай монстра

4550 kbps avg
Аудио: 48 kHz, DTS, 5.1, 768 Kbps

16,2 Mbps avg, 0.339 bit/pixel
Аудио: DTS, 48 kHz, 6 ch,

768.00 kbps avg | русский |Blu-ray EUR
Аудио: DTS, 48,0 kHz, 6 ch,

1509.00 kbps avg | английский | Оригинал
Субтитры: Русские, Английские
Видео: Идентификатор : 1 Формат : AVC Формат/Информация : Advanced Video Codec Профиль формата : [email protected] Параметр CABAC формата : Да Параметр ReFrames формата : 4 кадра Идентификатор кодека : V_MPEG4/ISO/AVC Продолжительность : 1 ч. 54 м. Битрейт : 16,2 Мбит/сек Ширина : 1920 пикселей Высота : 1038 пикселей Соотношение сторон : 1,85:1 Режим частоты кадров : Постоянный Частота кадров : 23,976 (24000/1001) кадра/сек Цветовое пространство : YUV Субдискретизация насыщенности : 4:2:0 Битовая глубина : 8 бит Тип развёртки : Прогрессивная Бит/(Пиксели*Кадры) : 0.339 Размер потока : 13,0 Гбайт (88%) Заголовок : Encode TayTO Библиотека кодирования : x264 core 152 r2851+58 429492e t_mod_Custom [[email protected] X86_64] Настройки программы : cabac=1 / ref=4 / deblock=1:-3:-3 / analyse=0x3:0x133 / me=umh / subme=11 / psy=1 / fade_compensate=0.00 / psy_rd=1.00:0.00 / mixed_ref=1 / me_range=32 / chroma_me=1 / trellis=2 / 8x8dct=1 / cqm=0 / deadzone=21,11 / fast_pskip=0 / chroma_qp_offset=-2 / threads=6 / lookahead_threads=1 / sliced_threads=0 / nr=0 / decimate=0 / interlaced=0 / bluray_compat=0 / constrained_intra=0 / fgo=0 / bframes=8 / b_pyramid=2 / b_adapt=2 / b_bias=0 / direct=3 / weightb=1 / open_gop=0 / weightp=2 / keyint=240 / keyint_min=23 / scenecut=40 / intra_refresh=0 / rc_lookahead=60 / rc=crf / mbtree=0 / crf=18.0000 / qcomp=0.65 / qpmin=0:0:0 / qpmax=69:69:69 / qpstep=4 / vbv_maxrate=62500 / vbv_bufsize=78125 / crf_max=0.0 / nal_hrd=none / filler=0 / ip_ratio=1.30 / pb_ratio=1.20 / aq=3:0.80 / aq-sensitivity=10.00 / aq-factor=1.00:1.00:1.00 / aq2=0 / aq3=0 / zones=2996,3008,crf=15/11409,11459,crf=15/18039,18066,crf=15/29092,29250,crf=15/38507,38581,crf=15/53080,53350,crf=15/67238,67305,crf=15/115592,115682,crf=15 Язык : English Default : Да Forced : Нет Цветовой диапазон : Limited Основные цвета : BT.709 Характеристики трансфера : BT.709 Коэффициенты матрицы : BT.709
Аудио #1: Идентификатор : 2 Формат : DTS Формат/Информация : Digital Theater Systems Режим : 16 Параметр Endianness формата : Big Идентификатор кодека : A_DTS Продолжительность : 1 ч. 54 м. Вид битрейта : Постоянный Битрейт : 768 Кбит/сек Каналы : 6 каналов Расположение каналов : Front: L C R, Side: L R, LFE Частота : 48,0 КГц Частота кадров : 93,750 кадра/сек (512 spf) Битовая глубина : 24 бит Метод сжатия : С потерями Размер потока : 632 Мбайт (4%) Заголовок : BD «Pifagor» Язык : Russian Default : Да Forced : Нет
Аудио #2: Идентификатор : 3 Формат : DTS Формат/Информация : Digital Theater Systems Режим : 16 Параметр Endianness формата : Big Идентификатор кодека : A_DTS Продолжительность : 1 ч. 54 м. Вид битрейта : Постоянный Битрейт : 1509 Кбит/сек Каналы : 6 каналов Расположение каналов : Front: L C R, Side: L R, LFE Частота : 48,0 КГц Частота кадров : 93,750 кадра/сек (512 spf) Битовая глубина : 24 бит Метод сжатия : С потерями Размер потока : 1,21 Гбайт (8%) Заголовок : Original Язык : English Default : Нет Forced : Нет

Читать еще:  Как сделать из бумаги автобус

Smart-Moovs.ru

Год выпуска: 2017
Страна: США
Жанр: 2017, Биография, Боевик, Драма, Исторический, Комедия, Криминал, Триллер
Продолжительность: 115 мин. / 01:55
Перевод: Профессиональный (полное дублирование)

Рейтинг



Трейлер к фильму Сделано в Америке (2017)

Здесь Вы можете скачать фильм для мобильного: Сделано в Америке, который конвертирован специально для Вашего смартфона в расширении 640х360 пикселей , а также для мобильных телефонов в формате mp4 размером 320х240.

Данный фильм относится к следующим жанрам и категориям: 2017, Биография, Боевик, Драма, Исторический, Комедия, Криминал, Триллер, в главных ролях фильма Сделано в Америке снялись такие актеры как: Том Круз, Донал Глисон, Сара Райт, Джесси Племонс, Калеб Лэндри Джонс, Лола Кёрк, Джейма Мейс, Алехандро Эдда, Бенито Мартинес, Э. Роджер Митчелл (кликнув по любому из имен, Вы получите список всех фильмов в которых он учувствовал).

Все фильмы на сайте Smart-Moovs.Ru в том числе и Сделано в Америке имеют высокое качество картинки и стерео звука, которые будут без проблем воспроизводиться на таких смартфонах как Nokia 5228, 5230, 5235, 5250, 5530, 5800, C5-03, C6, C6-01, C7, E6, E7, X7, N8, N97, N97 mini, X6, Nokia 500, 600, 603, 700, 701, Samsung i8910 Omnia HD, Sony Ericsson U1 Satio, U5i Vivaz, U8i Vivaz Pro и на многих других современных смартфонах, а так же на всех телефонах поддерживающих формат видео mp4, с размером 320х240

Все фильмы на сайте предоставлены исключительно в ознакомительных целях, дабы Вы могли ознакомиться с сюжетом, а после приобрести лицензионный диск с фильмом Сделано в Америке и посмотреть его дома вместе со своей семьей. Приятного просмотра.

Источники:

http://hd.moviegrand.ru/15247-sdelano-v-amerike-2017.html

http://smart-moovs.ru/4683-sdelano-v-amerike.html

Ссылка на основную публикацию
Статьи на тему:

Adblock
detector